osu file format v13

[General]
AudioFilename: Nippontradamus.mp3
AudioLeadIn: 0
PreviewTime: 3450
Countdown: 0
SampleSet: Normal
StackLeniency: 0.7
Mode: 0
LetterboxInBreaks: 1
WidescreenStoryboard: 1

[Editor]
DistanceSpacing: 1
BeatDivisor: 2
GridSize: 4
TimelineZoom: 1

[Metadata]
Title:Nippontradamus
TitleUnicode:Nippontradamus
Artist:The Living Tombstone
ArtistUnicode:The Living Tombstone
Creator:Everest Hope
Version:wa's Standard
Source:
Tags:MomoKuro-tei Ichimon Nippon Egao Hyakkei
BeatmapID:451713
BeatmapSetID:183949

[Difficulty]
HPDrainRate:4
CircleSize:4
OverallDifficulty:4
ApproachRate:6
SliderMultiplier:0.9
SliderTickRate:1

[Events]
//Background and Video events
0,0,"bg2betch.jpg",0,0
//Break Periods
//Storyboard Layer 0 (Background)
//Storyboard Layer 1 (Fail)
//Storyboard Layer 2 (Pass)
//Storyboard Layer 3 (Foreground)
//Storyboard Sound Samples
//Background Colour Transformations
3,100,0,0,0

[TimingPoints]
0,300,4,1,1,100,1,0
4800,-100,4,2,0,100,0,0
19200,-100,4,2,1,100,0,0
24000,-100,4,2,0,100,0,0
34200,-100,4,2,1,100,0,0

[Colours]
Combo1 : 0,198,198
Combo2 : 0,0,255
Combo3 : 128,0,255
Combo4 : 0,183,0
Combo5 : 217,0,0
Combo6 : 232,232,232

[HitObjects]
256,192,0,12,0,3600,0:0:0:0:
324,92,4800,6,0,L|423:102,1,90,4|2,0:0|0:0,0:0:0:0:
432,200,5400,2,0,L|244:179,1,180,4|0,0:0|0:0,0:0:0:0:
160,228,6300,1,4,0:0:0:0:
248,276,6600,1,0,0:0:0:0:
160,324,6900,1,0,0:0:0:0:
248,368,7200,6,0,B|337:360|337:360|376:336|376:336|432:332,1,180,4|4,0:0|0:0,0:0:0:0:
484,256,8100,1,4,0:0:0:0:
396,212,8400,2,0,P|388:168|396:116,1,90,0|4,0:0|0:0,0:0:0:0:
480,72,9000,2,0,P|488:116|480:168,1,90,0|0,0:0|0:0,0:0:0:0:
396,212,9600,6,0,B|340:224|308:212|308:212|293:255|293:255|250:242|250:242|256:288|228:328,1,270,4|4,0:0|0:0,0:0:0:0:
228,327,10800,1,0,0:0:0:0:
136,360,11100,1,4,0:0:0:0:
76,280,11400,1,0,0:0:0:0:
128,196,11700,1,0,0:0:0:0:
128,196,11850,1,0,0:0:0:0:
128,196,12000,2,0,B|217:184|217:184|260:200|260:200|304:196|304:196|292:236|300:264|320:292,1,270,8|8,0:0|0:0,0:0:0:0:
256,192,13200,12,4,14400,0:0:0:0:
160,100,15000,5,2,0:0:0:0:
256,80,15300,1,4,0:0:0:0:
352,100,15600,2,0,L|416:96,2,45,0|0|4,0:0|0:0|0:0,0:0:0:0:
284,172,16200,2,0,P|272:208|312:296,1,135,0|0,0:0|0:0,0:0:0:0:
340,316,16800,6,0,L|436:312,1,90,4|2,0:0|0:0,0:0:0:0:
453,216,17400,2,0,L|364:220,1,90,4|0,0:0|0:0,0:0:0:0:
284,172,18000,5,6,0:0:0:0:
204,232,18300,1,12,0:0:0:0:
128,296,18600,2,0,L|36:300,1,90,6|12,0:0|0:0,0:0:0:0:
112,204,19200,2,0,P|124:172|116:116,1,90,0|0,0:0|0:0,0:0:0:0:
208,76,19800,2,0,P|229:102|282:123,1,90,0|0,0:0|0:0,0:0:0:0:
380,112,20400,1,0,0:0:0:0:
332,200,20700,5,0,0:0:0:0:
384,284,21000,1,0,0:0:0:0:
384,284,21150,1,0,0:0:0:0:
384,284,21300,1,8,0:0:0:0:
328,364,21600,6,0,P|276:374|220:360,1,90,8|0,0:0|0:0,0:0:0:0:
152,324,22200,2,0,P|107:318|64:328,1,90,0|8,0:0|0:0,0:0:0:0:
232,280,22800,2,0,B|276:200|204:176|252:100,1,180,0|8,0:0|0:0,0:0:0:0:
336,156,23700,1,4,0:0:0:0:
416,216,24000,6,0,L|512:208,1,90,4|2,0:0|0:0,0:0:0:0:
488,304,24600,2,0,L|340:316,1,135,4|0,0:0|0:0,0:0:0:0:
324,304,25200,2,0,P|304:260|308:212,1,90,0|4,0:0|0:0,0:0:0:0:
368,144,25800,1,0,0:0:0:0:
208,264,26400,6,0,P|156:276|120:268,1,90,4|2,0:0|0:0,0:0:0:0:
68,184,27000,2,0,P|83:132|108:105,1,90,4|4,0:0|0:0,0:0:0:0:
211,104,27600,2,0,P|247:143|258:178,1,90,0|4,0:0|0:0,0:0:0:0:
164,184,28200,1,0,0:0:0:0:
356,132,28800,6,0,L|448:140,1,90,4|2,0:0|0:0,0:0:0:0:
404,228,29400,2,0,B|313:220|313:220|272:192,1,135,4|0,0:0|0:0,0:0:0:0:
276,195,30000,1,0,0:0:0:0:
184,232,30300,1,4,0:0:0:0:
104,176,30600,1,0,0:0:0:0:
192,136,30900,1,0,0:0:0:0:
256,192,31200,12,14,33600,0:0:0:0:
200,128,34200,5,10,0:0:0:0:
296,148,34500,1,10,0:0:0:0:
392,168,34800,2,0,L|481:156,2,90,10|10|10,0:0|0:0|0:0,0:0:0:0:
320,236,35700,1,10,0:0:0:0:
252,308,36000,5,10,0:0:0:0:
252,308,36300,1,10,0:0:0:0:
156,288,36600,1,10,0:0:0:0:
156,288,36900,1,10,0:0:0:0:
64,328,37200,2,0,P|56:284|66:240,1,90,10|10,0:0|0:0,0:0:0:0:
120,156,37800,2,0,P|128:112|118:68,1,90,10|10,0:0|0:0,0:0:0:0:
256,192,38400,12,12,42000,0:0:0:0:
